The Secret Life Of Pets Kd Free Movie Torrent

Share Ratio

The Secret Life Of Pets Kd Free Movie Torrent

The Secret Life Of Pets Kd

Trusted torrent
Download here

The Secret Life Of Pets Kd

A comedy about the lives of our pets lead after the holiday to work or school every day.

A terrier named Max quiet life spilled when the owner walked bum Duke, who promptly Max parameter.

Director: Yarrow Cheney, Chris Renaud

Author: Cinco Paul, Ken Daurio

star: Lewis, Eric Stonestreet, Kevin Hart

Genre: Animation | comedy | family

Country: Japan | US

language:

thx Hive

CM8 do it the first time

source:

Video: 1080p HDCAM (CPG / Father)

Audio:Bahasa Inggeris Direct Line (CPG / Father)

Thank you

speech:

I’m still there if something might be improved, and this is one of the perlubanyak work

Cam was convicted technical perfect quality

First minute intro is the favorite OOS 12-45 seconds, as they join with different frame rates,

5 minutes in this standard is a two-minute video loop, WTF

stradaatod clips of various issues are inter-related.

videoIa been distorted

encode:

fixed perspective

reducedto 720p – looks fresh and waybetter

removed from the intertwined within two video

Remove loop video

intro video recording equipment

fixed brightness, contrast, RGB connection dodadeostrina

audio resynced

clean audio

Cinavia removed

berkualitiIa tested and optimized for 4K TV 75 looks perfect.

I have very good and I would do, while retail

enjoy

Video: 1280×672 @bitrate 4000-8000

Audio: Bahasa Inggeris AC3 Stereo Direct Line

Example: including

number

namefull:

Format: Matroska

Format version: Version 2

File size: GiB

duration: 1h 23mn

Total bit rate mode: Variable

Overall Bitrate: 4428 Kbps

Date coded: 07/21/2016 23:09:37 UTC

written application: mkvmerge ( ‘Kenya Kane “) was built on May 27, 2012 16:44:04

library writes: libebml + libmatroska

video

ID: 1

Format: AVC

Format / Info: Advanced VideoCodec

Format profile: / * * /

FormatCABAC settings: Yes

Adjustments to form in the frame 4 frame

Procedure GOP format: M = 4 N = 33

ModMuxing: Header drainage

Codec ID: V_MPEG4 / ISO / AVC

Duration: 1h 23mn

Bitrate mode: Variable

Bit rate: 3892 Kbps

Maximum transfer speed: 8000 Kbps

Width: 1280 pixels

height: 672 pixels

Display aspect ratio:

rejimbingkai Speed: Constant

Frame: frames per second

Standard: PAL

Color Space: YUV

Chroma options: 4: 2: 0

Bit Depth: 8 bit

Scan type: Progressive

Bits / (Pixel * Frame):

Stream size: GiB (88%)

language:

Standard: Yes

Force: None

primarniteizbori Color:

transfer features:

coefficientsMatrix:

color: Limited

shrill

ID: 2

Format: AC-3

Format / Info: Audio Coding 3

Fashion forward: CM (complete main)

Setting format endianness: Big

Muxing mode: Header drainage

Codec ID: A_AC3

23mn 1 hours:

Bit rate mode: Constant

Bit rate: 448 Kbps

channel (R) 2 channel

Channel positions: Front: L R

sampling frequency: KHz

Bit depth: 16 bit

Compression mode: with loss

Stream size: 267 MiB (10%)

language:

Standard: Yes

Force: None

  1. The Secret Life Of Pets Kd tpb full torrent download
  2. The Secret Life Of Pets Kd Free Movie Torrent

Download download